Login
Username:
Password:
Remember Me:
[Signup]
[Recover Account]
Friends
BTScene
Friendly site

Ale Torrenty Team
Friendly site

Anime RG
Friendly site

KaranPC
Friendly site

P2PDL.com
Friendly site

Free Tutorials & Courses
Friendly site
Torrent Details For "Dangal 2016 1CD Desi PDVD x264 Deflickered-DDR Exclusive"

Dangal 2016 1CD Desi PDVD x264 Deflickered-DDR Exclusive

To download this torrent, you need a BitTorrent client: Vuze or BTGuard
Download this torrent
Download using Magnet Link

Direct Download - no client needed

Download Faster - High Speed Download

Health:
Seeds: 40
Leechers: 12
Completed: 1,050 
Last Checked: 08-02-2017 18:22:56

Uploader Reputation points : 164
External: Torrent




Write a Review for the Uploader:   0   Say Thanks with one good review:


Details
Name:Dangal 2016 1CD Desi PDVD x264 Deflickered-DDR Exclusive
Description:



Dangal.2016.1CD.Desi.PDVD.x264.Deflickered-DDR Exclusive




Video Flickering 100 % removed - A DDR Exclusivity



Source: MPEG DUMP @ Lotty Ka Ware house (The P2P King of Pre)

Format : Matroska
Format : AVC
Format/Info : Advanced Video Codec
Format profile : [email protected]
Format settings, CABAC : Yes
Format settings, ReFrames : 16 frames
Codec ID : V_MPEG4/ISO/AVC
Duration : 2 h 32 min
Bit rate mode : Variable
Bit rate : 573 kb/s
Maximum bit rate : 62.5 Mb/s
Width : 640 pixels
Height : 240 pixels
Display aspect ratio : 2.667
Frame rate mode : Constant
Frame rate : 25.000 FPS
Color space : YUV
Chroma subsampling : 4:2:0
Bit depth : 8 bits
Scan type : Progressive
Bits/(Pixel*Frame) : 0.149
Stream size : 625 MiB (90%)
Writing library : x264 core 148 r2744 b97ae06
Default : Yes
Forced : No
Color range : Limited
Color primaries : BT.601 NTSC
Transfer characteristics : BT.601
Matrix coefficients : BT.601

Audio #1
Format : AAC
Format/Info : Advanced Audio Codec
Format profile : LC
Codec ID : A_AAC
Duration : 2 h 32 min
Bit rate : 64.0 kb/s
Channel(s) : 2 channels
Channel positions : Front: L R
Sampling rate : 48.0 kHz
Frame rate : 46.875 FPS (1024 spf)
Compression mode : Lossy
Delay relative to video : 9 ms
Stream size : 69.8 MiB (10%)
Language : Hindi
Default : Yes
Forced : No

Chapters : None

SAMPLE Included

A DDR Exclusive Encode




****All credit to origilal uploader/encoder****


Screen Shots



YouTube Video:
Category:Movies
Language:Hindi  Hindi
Total Size:705.93 MB
Info Hash:8AFD29D6BB2EBDFC344BFEF58A254F4B725C1509
Added By:CDRiPD
Date Added:24-12-2016 03:41:31
Torrent Status:Unverified Torrent


Ratings:Not Yet Rated (Log in to rate it)

  


Tracker:
udp://tracker.zer0day.to:1337/announce

This Torrent also has backup trackers
URLSeedersLeechersCompleted
udp://tracker.zer0day.to:1337/announce410
udp://tracker.opentrackr.org:1337/announce41149
udp://tracker.sktorrent.net:6969/announce000
udp://p4p.arenabg.com:1337/announce310
udp://explodie.org:6969/announce41126
udp://tracker.leechers-paradise.org:6969/announce823
udp://tracker.glotorrents.com:6969/announce000
udp://eddie4.nl:6969/announce823
udp://tracker.coppersurfer.tk:6969/announce94769
udp://tracker.openbittorrent.com:80/announce000


File List: 





Comments
No comments still posted