Login
Username:
Password:
Remember Me:
[Signup]
[Recover Account]
Friends
BTScene
Friendly site

Ale Torrenty Team
Friendly site

Anime RG
Friendly site

KaranPC
Friendly site

P2PDL.com
Friendly site

Free Tutorials & Courses
Friendly site
Torrent Details For "Dangal (2016) Hindi New DVDScr XviD - DDR"

Dangal (2016) Hindi New DVDScr XviD - DDR

To download this torrent, you need a BitTorrent client: Vuze or BTGuard
Download this torrent
Download using Magnet Link

Direct Download - no client needed

Download Faster - High Speed Download

Health:
Seeds: 239
Leechers: 0
Completed: 7,064 
Last Checked: 08-02-2017 18:22:53

Uploader Reputation points : 267
External: Torrent




Write a Review for the Uploader:   0   Say Thanks with one good review:


Details
Name:Dangal (2016) Hindi New DVDScr XviD - DDR
Description:


Format : AVC
Format/Info : Advanced Video Codec
Format profile : [email protected]
Format settings, CABAC : Yes
Format settings, ReFrames : 16 frames
Codec ID : V_MPEG4/ISO/AVC
Duration : 2 h 32 min
Bit rate mode : Variable
Bit rate : 573 kb/s
Maximum bit rate : 62.5 Mb/s
Width : 640 pixels
Height : 240 pixels
Display aspect ratio : 2.667
Frame rate mode : Constant
Frame rate : 25.000 FPS
Color space : YUV
Chroma subsampling : 4:2:0
Bit depth : 8 bits
Scan type : Progressive
Bits/(Pixel*Frame) : 0.149
Stream size : 625 MiB (90%)
Writing library : x264 core 148 r2744 b97ae06
Default : Yes
Forced : No
Color range : Limited
Color primaries : BT.601 NTSC
Transfer characteristics : BT.601
Matrix coefficients : BT.601

Audio #1
Format : AAC
Format/Info : Advanced Audio Codec
Format profile : LC
Codec ID : A_AAC
Duration : 2 h 32 min
Bit rate : 64.0 kb/s
Channel(s) : 2 channels
Channel positions : Front: L R
Sampling rate : 48.0 kHz
Frame rate : 46.875 FPS (1024 spf)
Compression mode : Lossy
Delay relative to video : 9 ms
Stream size : 69.8 MiB (10%)
Language : Hindi
Default : Yes
Forced : No

YouTube Video:
Category:Movies
Language:Hindi  Hindi
Total Size:697.37 MB
Info Hash:BD2A9AD69CD8A1B319B64877C6BF51E1A35B0F0A
Added By:extremerules
Date Added:24-12-2016 03:29:19
Torrent Status:Unverified Torrent


Ratings:Not Yet Rated (Log in to rate it)


Tracker:
udp://tracker.opentrackr.org:1337/announce

This Torrent also has backup trackers
URLSeedersLeechersCompleted
udp://tracker.opentrackr.org:1337/announce140675
udp://tracker.trackerfix.com:80/announce000
udp://9.rarbg.to:2710/announce1200
udp://9.rarbg.me:2710/announce1200
udp://tracker.ilibr.org:6969/announce1901,492
udp://tracker.ilibr.org:80/announce1901,492
udp://tracker.coppersurfer.tk:6969/announce1901,492
udp://tracker.coppersurfer.tk:69691901,492
udp://p4p.arenabg.com:1337/announce1905
udp://p4p.arenabg.ch:1337/announce1905
udp://eddie4.nl:6969/announce1909
udp://tracker.leechers-paradise.org:6969/announce1909
udp://explodie.org:6969/announce140376
udp://tracker.zer0day.to:1337/announce1608
udp://shadowshq.yi.org:6969/announce1909


File List: 





Comments
No comments still posted